Deadpool 2 (2018) UNRATED 1080p BluRay x264 DD5.1 [M Audios][Hindi+Telugu+Tamil+Eng]

Deadpool 2 (2018) UNRATED 1080p BluRay x264 DD5.1 [M Audios][Hindi+Telugu+Tamil+Eng]




Deadpool 2 (2018) UNRATED 1080p BluRay x264 DD5.1 [Multi Audios][Hindi+Telugu+Tamil+English]
Format                      : Matroska
Format version              : Version 4 / Version 2
File size                   : 3.63 GiB
Duration                    : 2 h 13 min
Overall bit rate            : 3 879 kb/s
Encoded date                : UTC 2018-08-18 14:39:39
Writing application         : mkvmerge v7.1.0 ('Good Love') 32bit built on Jul 27 2014 12:59:18
Writing library             : libebml v1.3.0 + libmatroska v1.4.1

Video
ID                          : 1
Format                      : AVC
Format/Info                 : Advanced Video Codec
Format profile              : [email protected]
Format settings, CABAC      : Yes
Format settings, RefFrames  : 4 frames
Codec ID                    : V_MPEG4/ISO/AVC
Duration                    : 2 h 13 min
Bit rate                    : 2 148 kb/s
Width                       : 1 920 pixels
Height                      : 800 pixels
Display aspect ratio        : 2.40:1
Frame rate mode             : Constant
Frame rate                  : 23.976 (24000/1001) FPS
Color space                 : YUV
Chroma subsampling          : 4:2:0
Bit depth                   : 8 bits
Scan type                   : Progressive
Bits/(Pixel*Frame)          : 0.058
Stream size                 : 2.01 GiB (55%)
Writing library             : x264 core 155 r2901 7d0ff22
Encoding settings           : cabac=1 / ref=3 / deblock=1:0:0 / analyse=0x3:0x113 / me=hex / subme=7 / psy=1 / psy_rd=1.00:0.00 / mixed_ref=1 / me_range=16 / chroma_me=1 / trellis=1 / 8x8dct=1 / cqm=0 / deadzone=21,11 / fast_pskip=1 / chroma_qp_offset=-2 / threads=25 / lookahead_threads=4 / sliced_threads=0 / nr=0 / decimate=1 / interlaced=0 / bluray_compat=0 / constrained_intra=0 / bframes=3 / b_pyramid=2 / b_adapt=1 / b_bias=0 / direct=1 / weightb=1 / open_gop=0 / weightp=2 / keyint=240 / keyint_min=23 / scenecut=40 / intra_refresh=0 / rc_lookahead=40 / rc=2pass / mbtree=1 / bitrate=2148 / ratetol=1.0 / qcomp=0.60 / qpmin=0 / qpmax=69 / qpstep=4 / cplxblur=20.0 / qblur=0.5 / ip_ratio=1.40 / aq=1:1.00
Language                    : English
Default                     : Yes
Forced                      : No

Audio #1
ID                          : 2
Format                      : AC-3
Format/Info                 : Audio Coding 3
Format settings, Endianness : Big
Codec ID                    : A_AC3
Duration                    : 2 h 13 min
Bit rate mode               : Constant
Bit rate                    : 448 kb/s
Channel(s)                  : 6 channels
Channel positions           : Front: L C R, Side: L R, LFE
Sampling rate               : 48.0 kHz
Frame rate                  : 31.250 FPS (1536 SPF)
Bit depth                   : 16 bits
Compression mode            : Lossy
Stream size                 : 429 MiB (12%)
Language                    : Telugu
Service kind                : Complete Main
Default                     : Yes
Forced                      : No

Audio #2
ID                          : 3
Format                      : AC-3
Format/Info                 : Audio Coding 3
Format settings, Endianness : Big
Codec ID                    : A_AC3
Duration                    : 2 h 13 min
Bit rate mode               : Constant
Bit rate                    : 448 kb/s
Channel(s)                  : 6 channels
Channel positions           : Front: L C R, Side: L R, LFE
Sampling rate               : 48.0 kHz
Frame rate                  : 31.250 FPS (1536 SPF)
Bit depth                   : 16 bits
Compression mode            : Lossy
Stream size                 : 429 MiB (12%)
Language                    : Tamil
Service kind                : Complete Main
Default                     : No
Forced                      : No

Audio #3
ID                          : 4
Format                      : AC-3
Format/Info                 : Audio Coding 3
Format settings, Endianness : Big
Codec ID                    : A_AC3
Duration                    : 2 h 13 min
Bit rate mode               : Constant
Bit rate                    : 448 kb/s
Channel(s)                  : 6 channels
Channel positions           : Front: L C R, Side: L R, LFE
Sampling rate               : 48.0 kHz
Frame rate                  : 31.250 FPS (1536 SPF)
Bit depth                   : 16 bits
Compression mode            : Lossy
Stream size                 : 429 MiB (12%)
Language                    : Hindi
Service kind                : Complete Main
Default                     : No
Forced                      : No

Audio #4
ID                          : 5
Format                      : AC-3
Format/Info                 : Audio Coding 3
Format settings, Endianness : Big
Codec ID                    : A_AC3
Duration                    : 2 h 13 min
Bit rate mode               : Constant
Bit rate                    : 384 kb/s
Channel(s)                  : 6 channels
Channel positions           : Front: L C R, Side: L R, LFE
Sampling rate               : 44.1 kHz
Frame rate                  : 28.711 FPS (1536 SPF)
Bit depth                   : 16 bits
Compression mode            : Lossy
Stream size                 : 368 MiB (10%)
Language                    : English
Service kind                : Complete Main
Default                     : No
Forced                      : No

Text
ID                          : 6
Format                      : UTF-8
Codec ID                    : S_TEXT/UTF8
Codec ID/Info               : UTF-8 Plain Text
Duration                    : 2 h 13 min
Bit rate                    : 71 b/s
Count of elements           : 2426
Stream size                 : 69.3 KiB (0%)
Language                    : English
Default                     : Yes
Forced                      : No














SINGLE DIRECT FAST LINKS
http://www.heroupload.us/df4cdd25e6cc2a02/Deadpool.2.2018.UNRATED.BluRay.1080p.Original.Telugu+Tamil+Hindi+English.mkv


http://filefloater.com/1kju/Deadpool.2.2018.UNRATED.BluRay.1080p.Original.Telugu+Tamil+Hindi+English.mkv

1GB LINKS

http://www.heroupload.us/a67b22e09e8992b8/Deadpool.2.2018.UNRATED.BluRay.1080p.Original.Telugu+Tamil+Hindi+English.part1.rar
http://www.heroupload.us/4a3c58eaebcccab5/Deadpool.2.2018.UNRATED.BluRay.1080p.Original.Telugu+Tamil+Hindi+English.part2.rar
http://www.heroupload.us/d84ad5aaff6ecc18/Deadpool.2.2018.UNRATED.BluRay.1080p.Original.Telugu+Tamil+Hindi+English.part3.rar
http://www.heroupload.us/8d67aba595b845a6/Deadpool.2.2018.UNRATED.BluRay.1080p.Original.Telugu+Tamil+Hindi+English.part4.rar



http://filefloater.com/1Kkp/Deadpool.2.2018.UNRATED.BluRay.1080p.Original.Telugu+Tamil+Hindi+English.part1.rar
http://filefloater.com/1kjw/Deadpool.2.2018.UNRATED.BluRay.1080p.Original.Telugu+Tamil+Hindi+English.part2.rar
http://filefloater.com/1Kkr/Deadpool.2.2018.UNRATED.BluRay.1080p.Original.Telugu+Tamil+Hindi+English.part3.rar
http://filefloater.com/1kjy/Deadpool.2.2018.UNRATED.BluRay.1080p.Original.Telugu+Tamil+Hindi+English.part4.rar


Buy Premium From My Links & Support Me
шаблоны для dle 11.2