Lucky: No Time for Love (2005) 720p - HD-DVDRip - AVC - AAC-Bollywooda2z

Lucky: No Time for Love (2005) 720p - HD-DVDRip - AVC - AAC-Bollywooda2z





General
Format                      : MPEG-4
Format profile              : Base Media
Codec ID                    : isom (isom/iso2/avc1/mp41)
File size                   : 302 MiB
Duration                    : 2 h 10 min
Overall bit rate mode       : Variable
Overall bit rate            : 324 kb/s
Writing application         : Lavf58.9.100

Video
ID                          : 1
Format                      : AVC
Format/Info                 : Advanced Video Codec
Format profile              : [email protected]
Format settings, CABAC      : No
Format settings, RefFrames  : 1 frame
Codec ID                    : avc1
Codec ID/Info               : Advanced Video Coding
Duration                    : 2 h 10 min
Bit rate                    : 256 kb/s
Width                       : 640 pixels
Height                      : 512 pixels
Display aspect ratio        : 5:4
Frame rate mode             : Constant
Frame rate                  : 25.000 FPS
Color space                 : YUV
Chroma subsampling          : 4:2:0
Bit depth                   : 8 bits
Scan type                   : Progressive
Bits/(Pixel*Frame)          : 0.031
Stream size                 : 237 MiB (79%)
Writing library             : x264 core 148 r2721 72d53ab
Encoding settings           : cabac=0 / ref=1 / deblock=1:0:0 / analyse=0x1:0x111 / me=hex / subme=2 / psy=1 / psy_rd=1.00:0.00 / mixed_ref=0 / me_range=16 / chroma_me=1 / trellis=1 / 8x8dct=0 / cqm=0 / deadzone=21,11 / fast_pskip=1 / chroma_qp_offset=0 / threads=4 / lookahead_threads=1 / sliced_threads=0 / nr=0 / decimate=1 / interlaced=0 / bluray_compat=0 / stitchable=1 / constrained_intra=0 / bframes=0 / weightp=0 / keyint=86400 / keyint_min=20 / scenecut=40 / intra_refresh=0 / rc_lookahead=40 / rc=cbr / mbtree=1 / bitrate=256 / ratetol=1.0 / qcomp=0.60 / qpmin=10 / qpmax=50 / qpstep=4 / vbv_maxrate=256 / vbv_bufsize=1200 / nal_hrd=none / filler=0 / ip_ratio=1.41 / aq=1:1.00

Audio
ID                          : 2
Format                      : AAC
Format/Info                 : Advanced Audio Codec
Format profile              : LC
Codec ID                    : 40
Duration                    : 2 h 10 min
Bit rate mode               : Variable
Bit rate                    : 64.0 kb/s
Maximum bit rate            : 66.5 kb/s
Channel(s)                  : 2 channels
Channel positions           : Front: L R
Sampling rate               : 44.1 kHz
Frame rate                  : 43.066 FPS (1024 SPF)
Compression mode            : Lossy
Stream size                 : 59.7 MiB (20%)
Default                     : Yes
Alternate group             : 1





SINGLE DIRECT FAST LINKS

http://www.heroupload.us/09d45638e3a5314b/Lucky-No.Time.for.Love.540p.HD-DVD.AVC.AAC-BollywoodA2Z.mp4



http://filefloater.com/29Cv/Lucky-No.Time.for.Love.540p.HD-DVD.AVC.AAC-BollywoodA2Z.mp4



Buy Premium From My Links & Support Me
шаблоны для dle 11.2