Bin Phere Free Me Tere (2013) 720p - HD-DVDRip - AVC - AAC-Bollywooda2z

Bin Phere Free Me Tere (2013) 720p - HD-DVDRip - AVC - AAC-Bollywooda2z



General
Complete name               : E:\Download C 2\1\Bin.Phere.Free.Mein.Tere.720p.HD-DVD.AVC.AAC-BollywoodA2Z.mp4
Format                      : MPEG-4
Format profile              : Base Media
Codec ID                    : isom (isom/iso2/avc1/mp41)
File size                   : 1.19 GiB
Duration                    : 2 h 10 min
Overall bit rate            : 1 299 kb/s
Writing application         : Lavf58.9.100

Video
ID                          : 1
Format                      : AVC
Format/Info                 : Advanced Video Codec
Format profile              : [email protected]
Format settings, CABAC      : Yes
Format settings, RefFrames  : 4 frames
Format settings, GOP        : M=3, N=25
Codec ID                    : avc1
Codec ID/Info               : Advanced Video Coding
Duration                    : 2 h 10 min
Bit rate                    : 1 198 kb/s
Width                       : 1 280 pixels
Height                      : 720 pixels
Display aspect ratio        : 16:9
Frame rate mode             : Constant
Frame rate                  : 25.000 FPS
Color space                 : YUV
Chroma subsampling          : 4:2:0
Bit depth                   : 8 bits
Scan type                   : Progressive
Bits/(Pixel*Frame)          : 0.052
Stream size                 : 1.09 GiB (92%)
Writing library             : Zencoder Video Encoding System

Audio
ID                          : 2
Format                      : AAC
Format/Info                 : Advanced Audio Codec
Format profile              : LC
Codec ID                    : 40
Duration                    : 2 h 10 min
Bit rate mode               : Constant
Bit rate                    : 96.0 kb/s
Channel(s)                  : 2 channels
Channel positions           : Front: L R
Sampling rate               : 48.0 kHz
Frame rate                  : 46.875 FPS (1024 SPF)
Compression mode            : Lossy
Stream size                 : 89.2 MiB (7%)
Default                     : Yes
Alternate group             : 1




SINGLE DIRECT FAST LINKS

http://www.heroupload.us/14589202eb2ff376/Bin.Phere.Free.Mein.Tere.720p.HD-DVD.AVC.AAC-BollywoodA2Z.mp4



http://filefloater.com/29Rq/Bin.Phere.Free.Mein.Tere.720p.HD-DVD.AVC.AAC-BollywoodA2Z.mp4


Buy Premium From My Links & Support Me
шаблоны для dle 11.2