Once Again (2018) 1080p - WEB-DL - AVC - DD5.1 - Esubs-TT Exclusive

Once Again (2018) 1080p - WEB-DL - AVC - DD5.1 - Esubs-TT Exclusive






Format                      : MPEG-4
Format profile              : Base Media
Codec ID                    : isom (isom/iso2/avc1/mp41)
File size                   : 3.52 GiB
Duration                    : 1 h 41 min
Overall bit rate            : 4 974 kb/s
Writing application         : Lavf58.12.100

Video
ID                          : 1
Format                      : AVC
Format/Info                 : Advanced Video Codec
Format profile              : [email protected]
Format settings, CABAC      : Yes
Format settings, RefFrames  : 3 frames
Codec ID                    : avc1
Codec ID/Info               : Advanced Video Coding
Duration                    : 1 h 41 min
Bit rate                    : 4 584 kb/s
Width                       : 1 920 pixels
Height                      : 1 080 pixels
Display aspect ratio        : 16:9
Frame rate mode             : Constant
Frame rate                  : 24.000 FPS
Color space                 : YUV
Chroma subsampling          : 4:2:0
Bit depth                   : 8 bits
Scan type                   : Progressive
Bits/(Pixel*Frame)          : 0.092
Stream size                 : 3.25 GiB (92%)

Audio
ID                          : 2
Format                      : AC-3
Format/Info                 : Audio Coding 3
Format settings, Endianness : Big
Codec ID                    : ac-3
Duration                    : 1 h 41 min
Bit rate mode               : Constant
Bit rate                    : 384 kb/s
Channel(s)                  : 6 channels
Channel positions           : Front: L C R, Side: L R, LFE
Sampling rate               : 48.0 kHz
Frame rate                  : 31.250 FPS (1536 SPF)
Bit depth                   : 16 bits
Compression mode            : Lossy
Stream size                 : 279 MiB (8%)
Service kind                : Complete Main
Default                     : Yes
Alternate group             : 1



SINGLE DIRECT FAST LINKS
http://www.heroupload.us/33f030f80ebcabc3/Once.Again.2018.1080p.WEB-DL.AVC.DD5.1.Esubs-TT.mp4


http://filefloater.com/Uyj/Once.Again.2018.1080p.WEB-DL.AVC.DD5.1.Esubs-TT.mp4

1GB LINKS

http://www.heroupload.us/fb3fff09a08577fb/Once.Again.2018.1080p.WEB-DL.AVC.DD5.1.Esubs-TT.part1.rar
http://www.heroupload.us/97573094fec6c783/Once.Again.2018.1080p.WEB-DL.AVC.DD5.1.Esubs-TT.part2.rar
http://www.heroupload.us/505e4753ea8ccb10/Once.Again.2018.1080p.WEB-DL.AVC.DD5.1.Esubs-TT.part3.rar
http://www.heroupload.us/1f97a5dfe8e47c11/Once.Again.2018.1080p.WEB-DL.AVC.DD5.1.Esubs-TT.part4.rar
http://www.heroupload.us/a09f6a90b12792e0/Once.Again.2018.1080p.WEB-DL.AVC.DD5.1.Esubs-TT.srt



http://filefloater.com/Uyk/Once.Again.2018.1080p.WEB-DL.AVC.DD5.1.Esubs-TT.part1.rar
http://filefloater.com/Uyl/Once.Again.2018.1080p.WEB-DL.AVC.DD5.1.Esubs-TT.part2.rar
http://filefloater.com/Uym/Once.Again.2018.1080p.WEB-DL.AVC.DD5.1.Esubs-TT.part3.rar
http://filefloater.com/Uyn/Once.Again.2018.1080p.WEB-DL.AVC.DD5.1.Esubs-TT.part4.rar
http://filefloater.com/Uyo/Once.Again.2018.1080p.WEB-DL.AVC.DD5.1.Esubs-TT.srt



Buy Premium From My Links & Support Me
шаблоны для dle 11.2