Internal Affairs (2018) 1080p - WEB-HD - AVC - AAC-DUS Exclusive

Internal Affairs (2018) 1080p - WEB-HD - AVC - AAC-DUS Exclusive





Format                                   : MPEG-4
Format profile                           : Base Media
Codec ID                                 : isom (isom/iso2/avc1/mp41)
File size                                : 1.87 GiB
Duration                                 : 1 h 26 min
Overall bit rate                         : 3 093 kb/s
Writing application                      : Lavf58.10.100

Video
ID                                       : 1
Format                                   : AVC
Format/Info                              : Advanced Video Codec
Format profile                           : High@L3.1
Format settings                          : CABAC / 4 Ref Frames
Format settings, CABAC                   : Yes
Format settings, RefFrames               : 4 frames
Codec ID                                 : avc1
Codec ID/Info                            : Advanced Video Coding
Duration                                 : 1 h 26 min
Bit rate                                 : 3 000 kb/s
Width                                    : 1 920 pixels
Height                                   : 1 080 pixels
Display aspect ratio                     : 16:9
Frame rate mode                          : Constant
Frame rate                               : 25.000 FPS
Color space                              : YUV
Chroma subsampling                       : 4:2:0
Bit depth                                : 8 bits
Scan type                                : Progressive
Bits/(Pixel*Frame)                       : 0.058
Stream size                              : 1.82 GiB (98%)
Writing library                          : x264 core 148 r2795 aaa9aa8

Audio
ID                                       : 2
Format                                   : AAC
Format/Info                              : Advanced Audio Codec
Format profile                           : LC
Codec ID                                 : mp4a-40-2
Duration                                 : 1 h 26 min
Duration_FirstFrame                      : 59 ms
Bit rate mode                            : Constant
Bit rate                                 : 64.7 kb/s
Channel(s)                               : 2 channels
Channel positions                        : Front: L R
Sampling rate                            : 48.0 kHz
Frame rate                               : 46.875 FPS (1024 SPF)
Compression mode                         : Lossy
Stream size                              : 40.0 MiB (2%)
Default                                  : Yes
Alternate group                          : 1



SINGLE DIRECT FAST LINKS

http://www.heroupload.us/35f5e2d868588775/Internal.Affairs.2018.1080p.WEBHD.Untouched-DUS.mp4



http://filefloater.com/2AVb/Internal.Affairs.2018.1080p.WEBHD.Untouched-DUS.mp4




Buy Premium From My Links & Support Me
шаблоны для dle 11.2