Tarzan The Heman (Vanamagan) (2018) Hindi - 1080p - WEBHD - AVC - AAC-GM

Tarzan The Heman (Vanamagan) (2018) Hindi - 1080p - WEBHD - AVC - AAC-GM





Format                      : MPEG-4
Format profile              : Base Media
Codec ID                    : isom (isom/iso2/avc1/mp41)
File size                   : 1.43 GiB
Duration                    : 1 h 52 min
Overall bit rate            : 1 828 kb/s
Writing application         : Lavf58.9.100

Video
ID                          : 1
Format                      : AVC
Format/Info                 : Advanced Video Codec
Format profile              : [email protected]
Format settings, CABAC      : Yes
Format settings, RefFrames  : 3 frames
Codec ID                    : avc1
Codec ID/Info               : Advanced Video Coding
Duration                    : 1 h 52 min
Bit rate                    : 1 696 kb/s
Width                       : 1 920 pixels
Height                      : 1 080 pixels
Display aspect ratio        : 16:9
Frame rate mode             : Constant
Frame rate                  : 25.000 FPS
Color space                 : YUV
Chroma subsampling          : 4:2:0
Bit depth                   : 8 bits
Scan type                   : Progressive
Bits/(Pixel*Frame)          : 0.033
Stream size                 : 1.33 GiB (93%)
Color range                 : Limited
Color primaries             : BT.709
Transfer characteristics    : BT.709
Matrix coefficients         : BT.709

Audio
ID                          : 2
Format                      : AAC
Format/Info                 : Advanced Audio Codec
Format profile              : LC
Codec ID                    : 40
Duration                    : 1 h 52 min
Bit rate mode               : Constant
Bit rate                    : 126 kb/s
Channel(s)                  : 2 channels
Channel positions           : Front: L R
Sampling rate               : 44.1 kHz
Frame rate                  : 43.066 FPS (1024 SPF)
Compression mode            : Lossy
Stream size                 : 101 MiB (7%)
Language                    : English
Default                     : Yes
Alternate group             : 1






SINGLE DIRECT FAST LINKS
http://www.heroupload.us/c7c966e6c5a328e3/Tarzan.The.Heman.Vanamagan.2018.1080p.WEB-HD.AVC.AAC-GM.mp4


http://filefloater.com/2ASs/Tarzan.The.Heman.Vanamagan.2018.1080p.WEB-HD.AVC.AAC-GM.mp4


Buy Premium From My Links & Support Me
шаблоны для dle 11.2